<?xml version="1.0" encoding="UTF-8"?><svg xmlns="http://www.w3.org/2000/svg" xmlns:xlink="http://www.w3.org/1999/xlink" contentScriptType="text/ecmascript" zoomAndPan="magnify" contentStyleType="text/css" enable-background="new 0 0 2709.426 868" version="1.1" width="500.0" xml:space="preserve" preserveAspectRatio="xMidYMid meet" viewBox="2523.458 107.125 74.62549 538.87476" height="3610.5276" x="0px" y="0px"><font horiz-adv-x="2048"><!-- Helvetica is a registered trademark of Linotype AG --><!-- Copyright: Copyright 2025 Adobe System Incorporated. All rights reserved. --><font-face font-family="Helvetica" units-per-em="2048" underline-position="-155" underline-thickness="101"/><missing-glyph horiz-adv-x="1298" d="M66,0l0,1469l1166,0l0,-1469M1048,184l0,1101l-798,0l0,-1101z"/><glyph unicode=" " horiz-adv-x="569"/><glyph unicode="-" horiz-adv-x="682" d="M85,663l502,0l0,-185l-502,0z"/><glyph unicode="0" horiz-adv-x="1139" d="M956,1203C1020,1085 1052,923 1052,718C1052,523 1023,362 965,235C881,52 744,-39 553,-39C381,-39 253,36 169,185C99,310 64,477 64,687C64,850 85,989 127,1106C206,1323 348,1432 554,1432C739,1432 873,1356 956,1203M858,711C858,874 838,1008 798,1113C758,1218 680,1270 565,1270C459,1270 382,1220 333,1121C284,1021 259,874 259,680C259,534 275,417 306,328C354,193 436,125 552,125C645,125 720,166 775,249C830,332 858,486 858,711z"/><glyph unicode="1" horiz-adv-x="1139" d="M196,1014l0,138C326,1165 417,1186 468,1216C519,1245 558,1315 583,1426l142,0l0,-1426l-192,0l0,1014z"/><glyph unicode="2" horiz-adv-x="1139" d="M400,571l192,111C678,732 738,775 773,810C828,865 855,929 855,1000C855,1083 830,1150 780,1199C730,1248 663,1272 580,1272C457,1272 371,1225 324,1132C299,1082 285,1013 282,924l-183,0C101,1049 124,1150 168,1229C246,1368 384,1437 581,1437C745,1437 865,1393 941,1304C1016,1215 1054,1117 1054,1008C1054,893 1014,795 933,714C886,667 803,609 682,542l-137,-76C480,430 428,396 391,363C324,305 282,241 265,170l782,0l0,-170l-983,0C71,123 96,231 141,322C185,413 271,496 400,571z"/><glyph unicode="3" horiz-adv-x="1139" d="M49,440l188,0C245,347 262,280 289,238C336,163 420,125 542,125C637,125 713,150 770,201C827,252 856,317 856,397C856,496 826,565 766,604C705,643 621,663 514,663C502,663 490,663 478,663C465,662 453,662 440,661l0,159C459,818 474,817 487,816C500,815 513,815 528,815C595,815 651,826 694,847C770,884 808,951 808,1047C808,1118 783,1173 732,1212C681,1251 622,1270 555,1270C435,1270 352,1230 306,1150C281,1106 266,1043 263,962l-178,0C85,1069 106,1159 149,1234C222,1367 351,1434 536,1434C682,1434 795,1402 875,1337C955,1272 995,1177 995,1054C995,966 971,895 924,840C895,806 857,779 810,760C885,739 944,700 987,641C1029,582 1050,509 1050,424C1050,287 1005,176 915,90C825,4 697,-39 532,-39C363,-39 240,8 164,101C87,194 49,307 49,440z"/><glyph unicode="4" horiz-adv-x="1139" d="M677,507l0,649l-459,-649M680,0l0,350l-628,0l0,176l656,910l152,0l0,-929l211,0l0,-157l-211,0l0,-350z"/><glyph unicode="5" horiz-adv-x="1139" d="M253,365C265,262 313,191 396,152C439,132 488,122 544,122C651,122 730,156 781,224C832,292 858,367 858,450C858,550 828,627 767,682C706,737 632,764 547,764C485,764 432,752 388,728C343,704 305,671 274,628l-156,9l109,771l744,0l0,-174l-609,0l-61,-398C334,861 366,880 396,893C449,915 511,926 581,926C712,926 824,884 915,799C1006,714 1052,607 1052,477C1052,342 1010,222 927,119C843,16 709,-36 526,-36C409,-36 306,-3 217,63C127,128 77,229 66,365z"/><glyph unicode="6" horiz-adv-x="1139" d="M1028,1057l-178,0C839,1114 822,1158 799,1190C756,1250 690,1280 602,1280C501,1280 421,1234 362,1141C303,1048 270,914 263,741C304,802 356,847 419,877C476,904 540,917 611,917C731,917 836,879 925,802C1014,725 1059,611 1059,459C1059,329 1017,214 932,114C847,13 727,-37 570,-37C436,-37 320,14 223,116C126,217 77,388 77,629C77,807 99,958 142,1082C225,1319 378,1438 599,1438C759,1438 871,1397 934,1314C997,1231 1028,1145 1028,1057M869,444C869,517 848,587 806,654C764,720 688,753 577,753C500,753 432,727 374,676C315,625 286,547 286,444C286,353 313,277 366,216C419,154 492,123 586,123C681,123 752,155 799,219C846,282 869,357 869,444z"/><glyph unicode="7" horiz-adv-x="1139" d="M1071,1408l0,-157C1025,1206 964,1129 888,1018C811,907 744,788 685,660C627,535 583,422 553,319C534,253 509,147 478,0l-199,0C324,273 424,545 579,816C670,975 766,1112 867,1227l-792,0l0,181z"/><glyph unicode="8" horiz-adv-x="1139" d="M810,1057C810,1110 789,1159 746,1204C703,1249 638,1271 551,1271C464,1271 402,1249 363,1204C324,1159 305,1107 305,1047C305,980 330,927 380,889C430,851 489,832 557,832C636,832 698,854 743,899C788,943 810,996 810,1057M858,392C858,485 830,555 773,603C716,651 644,675 555,675C469,675 399,651 345,602C290,553 263,485 263,398C263,323 288,259 338,205C387,150 464,123 568,123C651,123 721,146 776,191C831,236 858,303 858,392M195,838C142,891 116,961 116,1046C116,1153 155,1244 232,1321C309,1398 419,1436 561,1436C698,1436 806,1400 884,1328C962,1255 1001,1171 1001,1074C1001,985 978,912 933,857C908,826 868,795 815,765C874,738 921,706 955,671C1018,604 1050,518 1050,411C1050,285 1008,178 923,91C838,3 719,-41 564,-41C425,-41 307,-3 211,73C114,148 66,258 66,402C66,487 87,560 128,622C169,683 231,730 312,763C262,784 223,809 195,838z"/><glyph unicode="9" horiz-adv-x="1139" d="M272,346C277,247 316,178 387,140C424,120 465,110 511,110C597,110 670,146 731,218C792,289 835,435 860,654C820,591 771,546 712,521C653,495 589,482 521,482C383,482 274,525 194,611C113,697 73,808 73,943C73,1073 113,1187 192,1286C271,1385 388,1434 543,1434C752,1434 896,1340 975,1152C1019,1049 1041,919 1041,764C1041,589 1015,433 962,298C875,73 727,-40 518,-40C378,-40 272,-3 199,70C126,143 90,235 90,346M829,957C829,1062 803,1141 750,1193C697,1244 629,1270 547,1270C459,1270 389,1241 338,1182C286,1123 260,1044 260,945C260,852 283,778 328,723C373,668 446,640 545,640C616,640 682,664 741,711C800,758 829,840 829,957z"/><glyph unicode="A" horiz-adv-x="1366" d="M910,602l-223,649l-237,-649M583,1469l225,0l533,-1469l-218,0l-149,440l-581,0l-159,-440l-204,0z"/><glyph unicode="C" horiz-adv-x="1479" d="M1379,1028l-194,0C1163,1123 1119,1198 1054,1253C988,1308 896,1336 777,1336C632,1336 516,1285 427,1184C338,1082 293,926 293,716C293,544 333,405 414,298C494,191 614,137 773,137C920,137 1031,193 1108,306C1149,365 1179,443 1199,540l194,0C1376,385 1318,256 1221,151C1104,25 947,-38 749,-38C578,-38 435,14 319,117C166,254 90,465 90,750C90,967 147,1144 262,1283C386,1434 557,1509 775,1509C961,1509 1105,1460 1208,1362C1311,1264 1368,1153 1379,1028z"/><glyph unicode="D" horiz-adv-x="1479" d="M720,170C787,170 843,177 886,191C963,217 1027,267 1076,341C1115,400 1144,476 1161,569C1171,624 1176,676 1176,723C1176,905 1140,1046 1068,1147C995,1248 879,1298 718,1298l-353,0l0,-1128M165,1469l595,0C962,1469 1119,1397 1230,1254C1329,1125 1379,959 1379,757C1379,601 1350,460 1291,334C1188,111 1010,0 758,0l-593,0z"/><glyph unicode="E" horiz-adv-x="1366" d="M175,1469l1071,0l0,-180l-877,0l0,-446l811,0l0,-170l-811,0l0,-498l892,0l0,-175l-1086,0z"/><glyph unicode="F" horiz-adv-x="1251" d="M175,1469l1019,0l0,-180l-820,0l0,-446l721,0l0,-175l-721,0l0,-668l-199,0z"/><glyph unicode="K" horiz-adv-x="1366" d="M156,1469l194,0l0,-716l716,716l275,0l-611,-592l628,-877l-259,0l-514,737l-235,-225l0,-512l-194,0z"/><glyph unicode="M" horiz-adv-x="1706" d="M151,1469l285,0l422,-1242l419,1242l282,0l0,-1469l-189,0l0,867C1370,897 1371,947 1372,1016C1373,1085 1374,1160 1374,1239l-419,-1239l-197,0l-422,1239l0,-45C336,1158 337,1103 339,1030C340,956 341,902 341,867l0,-867l-190,0z"/><glyph unicode="O" horiz-adv-x="1593" d="M1366,1259C1463,1129 1512,963 1512,760C1512,541 1456,358 1345,213C1214,42 1028,-43 786,-43C560,-43 382,32 253,181C138,325 80,507 80,727C80,926 129,1096 228,1237C355,1418 542,1509 790,1509C1049,1509 1241,1426 1366,1259M1308,757C1308,930 1263,1069 1173,1174C1082,1279 959,1332 802,1332C650,1332 526,1280 430,1176C334,1071 286,917 286,714C286,551 327,414 410,303C492,191 625,135 810,135C985,135 1112,198 1191,324C1269,449 1308,594 1308,757z"/><glyph unicode="P" horiz-adv-x="1366" d="M175,1469l661,0C967,1469 1072,1432 1152,1359C1232,1285 1272,1181 1272,1048C1272,933 1236,834 1165,749C1094,664 984,621 836,621l-462,0l0,-621l-199,0M951,1267C907,1288 847,1298 770,1298l-396,0l0,-509l396,0C859,789 932,808 988,846C1043,884 1071,951 1071,1047C1071,1155 1031,1228 951,1267z"/><glyph unicode="S" horiz-adv-x="1366" d="M286,474C291,391 310,323 345,271C411,174 527,125 694,125C769,125 837,136 898,157C1017,198 1076,272 1076,379C1076,459 1051,516 1001,550C950,583 871,612 763,637l-199,45C434,711 342,744 288,779C195,840 148,932 148,1054C148,1186 194,1294 285,1379C376,1464 506,1506 673,1506C827,1506 958,1469 1066,1395C1173,1320 1227,1201 1227,1038l-187,0C1030,1117 1009,1177 976,1219C915,1296 812,1334 667,1334C550,1334 465,1309 414,1260C363,1211 337,1153 337,1088C337,1016 367,963 427,930C466,909 555,882 694,850l206,-47C999,780 1076,749 1130,710C1223,641 1270,542 1270,411C1270,248 1211,132 1093,62C974,-8 837,-43 680,-43C497,-43 354,4 251,97C148,190 97,315 99,474z"/><glyph unicode="U" horiz-adv-x="1479" d="M372,1469l0,-908C372,454 392,366 432,295C491,188 591,135 732,135C901,135 1015,193 1076,308C1109,371 1125,455 1125,561l0,908l202,0l0,-825C1327,463 1303,324 1254,227C1165,50 996,-39 748,-39C500,-39 332,50 243,227C194,324 170,463 170,644l0,825z"/><glyph unicode="a" horiz-adv-x="1139" d="M462,117C525,117 587,132 646,161C746,210 796,289 796,400l0,145C774,531 746,519 711,510C676,501 642,494 609,490l-109,-14C435,467 386,454 353,435C298,404 270,354 270,285C270,233 289,192 327,162C365,132 410,117 462,117M706,649C747,654 775,672 789,701C797,717 801,740 801,770C801,831 779,876 736,904C692,931 629,945 548,945C454,945 387,920 348,869C326,841 312,799 305,744l-168,0C140,876 183,968 266,1020C348,1071 443,1097 552,1097C678,1097 780,1073 859,1025C937,977 976,902 976,801l0,-617C976,165 980,150 988,139C995,128 1011,122 1036,122C1044,122 1053,123 1063,124C1073,125 1084,126 1095,128l0,-133C1067,-13 1046,-18 1031,-20C1016,-22 996,-23 971,-23C909,-23 864,-1 836,43C821,66 811,99 805,142C768,94 716,52 647,17C578,-18 503,-36 420,-36C321,-36 240,-6 177,55C114,115 82,190 82,281C82,380 113,457 175,512C237,567 318,600 419,613z"/><glyph unicode="b" horiz-adv-x="1139" d="M118,1474l175,0l0,-533C332,992 379,1032 434,1059C489,1086 548,1099 612,1099C745,1099 854,1053 937,962C1020,870 1061,735 1061,556C1061,387 1020,246 938,134C856,22 742,-34 597,-34C516,-34 447,-14 391,25C358,48 322,86 284,137l0,-137l-166,0M877,547C877,660 853,753 805,827C756,901 685,938 591,938C509,938 437,908 376,847C314,786 283,686 283,547C283,446 296,365 321,302C368,184 457,125 586,125C683,125 756,164 805,241C853,318 877,420 877,547z"/><glyph unicode="d" horiz-adv-x="1139" d="M553,119C636,119 705,155 759,227C812,298 839,401 839,535C839,670 811,771 756,836C701,901 632,933 551,933C460,933 387,898 331,829C274,760 246,658 246,523C246,408 270,312 319,235C368,158 446,119 553,119M723,1038C755,1018 791,983 832,933l0,541l173,0l0,-1474l-162,0l0,149C801,83 751,35 694,6C637,-23 571,-38 497,-38C378,-38 274,12 187,113C100,213 56,346 56,513C56,669 96,804 176,919C255,1033 369,1090 517,1090C599,1090 668,1073 723,1038z"/><glyph unicode="e" horiz-adv-x="1139" d="M962,903C998,849 1022,786 1034,714C1045,665 1050,586 1050,478l-785,0C268,369 294,282 342,217C390,151 464,118 565,118C659,118 734,149 790,211C822,247 845,289 858,336l177,0C1030,297 1015,253 989,205C962,156 933,117 900,86C845,33 778,-3 697,-22C654,-33 605,-38 550,-38C417,-38 304,11 211,108C118,205 72,340 72,515C72,687 119,827 212,934C305,1041 427,1095 578,1095C654,1095 728,1077 799,1042C870,1006 925,960 962,903M865,621C858,699 841,761 814,808C765,895 682,938 567,938C484,938 415,908 359,849C303,789 273,713 270,621z"/><glyph unicode="f" horiz-adv-x="569" d="M216,1398C258,1459 339,1490 459,1490C470,1490 482,1490 494,1489C506,1488 520,1487 535,1486l0,-164C516,1323 503,1324 495,1325C486,1325 478,1325 471,1325C416,1325 384,1311 373,1283C362,1254 357,1182 357,1066l178,0l0,-142l-180,0l0,-924l-178,0l0,924l-149,0l0,142l149,0l0,168C180,1309 193,1363 216,1398z"/><glyph unicode="h" horiz-adv-x="1139" d="M132,1474l180,0l0,-548C355,980 393,1018 427,1040C485,1078 557,1097 644,1097C799,1097 905,1043 960,934C990,875 1005,792 1005,687l0,-687l-185,0l0,675C820,754 810,811 790,848C757,907 696,936 606,936C531,936 464,910 403,859C342,808 312,711 312,568l0,-568l-180,0z"/><glyph unicode="i" horiz-adv-x="455" d="M132,1066l183,0l0,-1066l-183,0M132,1469l183,0l0,-204l-183,0z"/><glyph unicode="l" horiz-adv-x="455" d="M137,1469l180,0l0,-1469l-180,0z"/><glyph unicode="m" horiz-adv-x="1706" d="M132,1071l178,0l0,-152C353,972 391,1010 426,1034C485,1075 553,1095 628,1095C713,1095 782,1074 834,1032C863,1008 890,973 914,926C954,983 1001,1026 1055,1054C1109,1081 1170,1095 1237,1095C1381,1095 1479,1043 1531,939C1559,883 1573,808 1573,713l0,-713l-187,0l0,744C1386,815 1368,864 1333,891C1297,918 1253,931 1202,931C1131,931 1071,907 1020,860C969,813 943,734 943,623l0,-623l-183,0l0,699C760,772 751,825 734,858C707,908 656,933 581,933C513,933 451,907 396,854C340,801 312,706 312,568l0,-568l-180,0z"/><glyph unicode="o" horiz-adv-x="1139" d="M869,553C869,653 853,734 821,797C770,896 683,945 559,945C449,945 369,903 319,819C269,735 244,634 244,515C244,401 269,306 319,230C369,154 448,116 557,116C676,116 758,161 803,252C847,342 869,442 869,553M1057,558C1057,385 1015,243 931,130C847,17 717,-39 540,-39C393,-39 276,11 189,111C102,210 59,344 59,512C59,692 105,835 196,942C287,1049 410,1102 564,1102C702,1102 819,1056 914,964C1009,872 1057,737 1057,558z"/><glyph unicode="p" horiz-adv-x="1139" d="M877,542C877,627 865,701 840,762C793,880 708,939 584,939C459,939 374,877 328,752C303,685 291,601 291,498C291,415 303,345 328,287C375,176 460,121 584,121C668,121 738,156 794,227C849,297 877,402 877,542M118,1066l175,0l0,-142C329,973 368,1010 411,1037C472,1077 543,1097 625,1097C746,1097 849,1051 934,958C1019,865 1061,732 1061,559C1061,326 1000,159 878,59C801,-4 711,-36 608,-36C527,-36 460,-18 405,17C373,37 337,71 298,120l0,-547l-180,0z"/><glyph unicode="r" horiz-adv-x="682" d="M137,1071l171,0l0,-185C322,922 356,966 411,1018C466,1069 529,1095 600,1095C603,1095 609,1095 617,1094C625,1093 639,1092 658,1090l0,-190C647,902 638,903 629,904C620,905 610,905 599,905C508,905 439,876 390,818C341,759 317,692 317,616l0,-616l-180,0z"/><glyph unicode="s" horiz-adv-x="1024" d="M239,336C244,276 259,230 284,198C329,140 408,111 520,111C587,111 645,126 696,155C747,184 772,228 772,289C772,335 752,370 711,394C685,409 634,426 557,445l-143,36C323,504 255,529 212,557C135,606 96,673 96,759C96,860 133,942 206,1005C279,1068 377,1099 500,1099C661,1099 778,1052 849,957C894,897 915,832 914,763l-170,0C741,804 726,841 701,874C660,921 588,945 486,945C418,945 367,932 332,906C297,880 279,846 279,803C279,756 302,719 348,691C375,674 414,660 466,647l119,-29C714,587 801,556 845,527C915,481 950,409 950,310C950,215 914,132 842,63C769,-6 659,-41 511,-41C352,-41 239,-5 173,68C106,140 71,229 66,336z"/><glyph unicode="t" horiz-adv-x="569" d="M168,1370l182,0l0,-299l171,0l0,-147l-171,0l0,-699C350,188 363,163 388,150C402,143 425,139 458,139C467,139 476,139 486,140C496,140 508,141 521,142l0,-142C500,-6 479,-10 457,-13C434,-16 410,-17 384,-17C300,-17 243,5 213,48C183,91 168,146 168,215l0,709l-145,0l0,147l145,0z"/><glyph unicode="u" horiz-adv-x="1139" d="M312,1071l0,-711C312,305 321,261 338,226C370,162 430,130 517,130C642,130 728,186 773,298C798,358 810,440 810,545l0,526l180,0l0,-1071l-170,0l2,158C799,117 770,83 735,55C666,-1 583,-29 485,-29C332,-29 228,22 173,124C143,179 128,252 128,343l0,728z"/><glyph unicode="y" horiz-adv-x="1024" d="M801,1071l199,0C975,1002 918,846 831,601C766,417 711,267 667,151C563,-122 490,-289 447,-349C404,-409 331,-439 227,-439C202,-439 182,-438 169,-436C155,-434 138,-430 118,-425l0,164C149,-270 172,-275 186,-277C200,-279 212,-280 223,-280C256,-280 281,-274 297,-263C312,-252 325,-239 336,-223C339,-218 351,-190 372,-141C393,-92 408,-55 417,-31l-396,1102l204,0l287,-872z"/></font>
</svg>
